Skip to main content

Ratdog Live at Allgood Festival on 2007-07-13

by Ratdog



Ratdog
July 13, 2007
Allgood Festival - Allgood Stage
Marvin's Mountaintop grounds
Masontown WV

*** THIS IS A 16-BIT FILESET INTENDED FOR AUDIO CD ***

SOURCE: schoeps mk4v (ORTF, OTS) > vms02ib > busman t-mod edirol r4 (24/48)
PROCESSING: soundforge 8.0 (+4dB, tracking, fades, resample, dither) > flac 1.2.0a

01 Intro/Jam ^ >
02 Casey Jones
03 I Need A Miracle
04 Dark Star >
05 Hell In A Bucket
06 Lazy River Road
07 Me And My Uncle
08 Tennessee Jed
09 Uncle John's Band * >
10 Stuff * @ >
11 Come Together >
12 Dark Star >
13 Throwing Stones
14 pre-encore crowd
Encore
15 encore intro ("Fuck it, it's battle of the bands")
16 Touch Of Grey

* With Keller williams
@ Without Bobby


Collection Ratdog
Band/Artist Ratdog
Date July 13, 2007
Venue Allgood Festival
Location Masontown WV

Source schoeps mk4v (ORTF, OTS) > vms02ib > busman t-mod edirol r4 (24/48)
Lineage soundforge 8.0 (+4dB, tracking, fades, resample, dither) > flac 1.2.0a
Taped by Peter W. King
Transferred by Peter W. King


Notes

length expanded size cdr WAVE problems fmt ratio filename
3:32.15 37432124 B --- -- ---xx flac 0.4785 ratdog2007-07-13_mk4v_t01.flac
7:32.67 79890428 B --- -- ---xx flac 0.4756 ratdog2007-07-13_mk4v_t02.flac
8:24.68 89065580 B --- -- ---xx flac 0.4845 ratdog2007-07-13_mk4v_t03.flac
15:07.67 160152428 B --- -- ---xx flac 0.4685 ratdog2007-07-13_mk4v_t04.flac
13:08.15 139038524 B --- -- ---xx flac 0.4858 ratdog2007-07-13_mk4v_t05.flac
10:14.23 108363740 B --- -- ---xx flac 0.4422 ratdog2007-07-13_mk4v_t06.flac
5:57.07 62991308 B --- -- ---xx flac 0.4536 ratdog2007-07-13_mk4v_t07.flac
10:31.08 111327260 B --- -- ---xx flac 0.4655 ratdog2007-07-13_mk4v_t08.flac
21:24.15 226532924 B --- -- ---xx flac 0.4779 ratdog2007-07-13_mk4v_t09.flac
10:26.67 110584028 B --- -- ---xx flac 0.4608 ratdog2007-07-13_mk4v_t10.flac
8:16.53 87619100 B --- -- ---xx flac 0.4807 ratdog2007-07-13_mk4v_t11.flac
10:07.22 107126588 B --- -- ---xx flac 0.4649 ratdog2007-07-13_mk4v_t12.flac
12:20.23 130590140 B --- -- ---xx flac 0.5051 ratdog2007-07-13_mk4v_t13.flac
1:06.45 11748284 B --- -- ---xx flac 0.4055 ratdog2007-07-13_mk4v_t14.flac
0:12.45 2222684 B --- -- ---xx flac 0.4453 ratdog2007-07-13_mk4v_t15.flac
9:33.14 101110172 B --- -- ---xx flac 0.5306 ratdog2007-07-13_mk4v_t16.flac
147:56.29 1565795312 B 0.4767 (16 files)

Reviews

Reviewer: HookahG - - February 21, 2009
Subject: BOTB!!!
GREAT SHOW & ATMOSPHERE TO BE AT!!

CAN'T WAIT FOR BOBBY TO BE BACK AT ALLGOOD 2009!!!


THAT DUO, AND THEIR FANS, WERE A BUNCH OF PUNKS!!!

Download Options
711.9M
FLAC
115.2M
OGG VORBIS
2.3K
TEXT
33.8K
TORRENT
203.2M
VBR M3U
203.2M
VBR MP3
-
VBR ZIP
In Collection
Ratdog
In Collection
Live Music Archive
Uploaded by
peterwking
on 6/1/2008
Views
969
Favorites
2
Reviews
1
PEOPLE ALSO FOUND
Ratdog
by Ratdog
969
2
1
( 1 reviews )
Source: schoeps mk4v (ORTF, OTS) > vms02ib > busman t-mod edirol r4 (24/48)
Ratdog
by Ratdog
109
2
0
Source: schoeps mk4v (ORTF, OTS) > vms02ib > busman t-mod edirol r4 (24/48)
Ratdog
94
2
0
Source: mbho 603a/ka100dk (omni, jecklin) > mp2 > edirol r09 (24/48)
Ratdog
2,771
3
0
Source: mbho 603a/ka100dk (omni, jecklin) > mp2 > edirol r09 (24/48)
Jazzam
by Jazzam
337
0
0
Source: (DSBD + mbho 603a/ka200n > mp2) > t-mod edirol r4
Railroad Earth
by Railroad Earth
46
0
0
Source: studio projects LSD2 (xy) > busman t-mod edirol r4 (24/96)
Wayne Horvitz
by Wayne Horvitz
67
0
0
Source: Core sound binaurals (omni, on stand, 7') > Sony SBM-1 > Sony TCD-D8
Birdie Busch
by Birdie Busch
217
0
0
Source: mbho 603a/ka200n (cardioid) > sound devices mp-2 > edirol r09 (24/48)
Paradigm
by paradigm
175
0
0
Source: (DSBD + mbho 603a/ka200n > mp2) > t-mod edirol r4
Bonerama
by Bonerama
567
1
0
Source: studio projects LSD2 (blumlein) > busman t-mod edirol r4 (24/96)